Fake Identity 2010 720p BluRay x264-HDEX

    Share

    kimerajamm
    Thành Viên
    Thành Viên

    Nam
    Tổng số bài gửi : 3
    Age : 25
    Đến từ : vn
    Registration date : 05/06/2010

    Thông báo Fake Identity 2010 720p BluRay x264-HDEX

    Bài gửi by kimerajamm on Sat Jun 05, 2010 10:12 pm



    Fake Identity 2010 720p BluRay x264-HDEX


    Information:

    Code:


    Genre: Crime | Thriller
    IMDB rating: 4.3/10 (569 votes)
    http://www.imdb.com/title/tt1290400/
    Directed by: Dennis Dimster
    Starring: Val Kilmer, Izabella Miko, Zahary Baharov, Hristo Shopov, Didem Erol

    General
    Complete name                    : Fake.Identity.2010.720p.BluRay.x264-HDEX.mkv
    Format                          : Matroska
    File size                        : 4.38 GiB
    Duration                        : 1h 32mn
    Overall bit rate                : 6 742 Kbps
    Encoded date                    : UTC 2010-01-30 01:35:25
    Writing application              : mkvmerge v2.2.0 ('Turn It On Again') built on Mar  4 2008 12:58:26
    Writing library                  : libebml v0.7.7 + libmatroska v0.8.1

    Video
    ID                              : 1
    Format                          : AVC
    Format/Info                      : Advanced Video Codec
    Format profile                  : High@L4.1
    Format settings, CABAC          : Yes
    Format settings, ReFrames        : 5 frames
    Muxing mode                      : Container profile=Unknown@4.1
    Codec ID                        : V_MPEG4/ISO/AVC
    Duration                        : 1h 32mn
    Bit rate                        : 5 968 Kbps
    Nominal bit rate                : 6 100 Kbps
    Width                            : 1 280 pixels
    Height                          : 720 pixels
    Display aspect ratio            : 16:9
    Frame rate                      : 23.976 fps
    Resolution                      : 24 bits
    Colorimetry                      : 4:2:0
    Scan type                        : Progressive
    Bits/(Pixel*Frame)              : 0.270
    Stream size                      : 3.87 GiB (88%)
    Writing library                  : x264 core 78 r1310 ec46ace
    Language                        : English

    Audio
    ID                              : 2
    Format                          : AC-3
    Format/Info                      : Audio Coding 3
    Codec ID                        : A_AC3
    Duration                        : 1h 32mn
    Bit rate mode                    : Constant
    Bit rate                        : 640 Kbps
    Channel(s)                      : 6 channels
    Channel positions                : Front: L C R, Surround: L R, LFE
    Sampling rate                    : 48.0 KHz
    Stream size                      : 425 MiB (9%)
    Title                            : English
    Language                        : English

    Text
    ID                              : 3
    Format                          : UTF-8
    Codec ID                        : S_TEXT/UTF8
    Codec ID/Info                    : UTF-8 Plain Text
    Title                            : Dutch
    Language                        : Dutch
    Plot:
    In Chechnya, an American doctor takes a detour in life when he helps a mysterious woman escape from her would-be assailant.
    Screens





    Code:

    http://rapidshare.com/files/392350982/Fake.Identity.2010.720p.BluRay.x264-HDEX.part01.rar
    http://rapidshare.com/files/392025409/Fake.Identity.2010.720p.BluRay.x264-HDEX.part02.rar
    http://rapidshare.com/files/392024265/Fake.Identity.2010.720p.BluRay.x264-HDEX.part03.rar
    http://rapidshare.com/files/392025031/Fake.Identity.2010.720p.BluRay.x264-HDEX.part04.rar
    http://rapidshare.com/files/392026544/Fake.Identity.2010.720p.BluRay.x264-HDEX.part05.rar
    http://rapidshare.com/files/392009688/Fake.Identity.2010.720p.BluRay.x264-HDEX.part06.rar
    http://rapidshare.com/files/392559050/Fake.Identity.2010.720p.BluRay.x264-HDEX.part07.rar
    http://rapidshare.com/files/392349961/Fake.Identity.2010.720p.BluRay.x264-HDEX.part08.rar
    http://rapidshare.com/files/392010286/Fake.Identity.2010.720p.BluRay.x264-HDEX.part09.rar
    http://rapidshare.com/files/392348541/Fake.Identity.2010.720p.BluRay.x264-HDEX.part10.rar
    http://rapidshare.com/files/392010866/Fake.Identity.2010.720p.BluRay.x264-HDEX.part11.rar
    http://rapidshare.com/files/392009516/Fake.Identity.2010.720p.BluRay.x264-HDEX.part12.rar
    http://rapidshare.com/files/392024842/Fake.Identity.2010.720p.BluRay.x264-HDEX.part13.rar
    http://rapidshare.com/files/392351281/Fake.Identity.2010.720p.BluRay.x264-HDEX.part14.rar
    http://rapidshare.com/files/392009971/Fake.Identity.2010.720p.BluRay.x264-HDEX.part15.rar
    http://rapidshare.com/files/392009898/Fake.Identity.2010.720p.BluRay.x264-HDEX.part16.rar
    http://rapidshare.com/files/392346578/Fake.Identity.2010.720p.BluRay.x264-HDEX.part17.rar
    http://rapidshare.com/files/392010466/Fake.Identity.2010.720p.BluRay.x264-HDEX.part18.rar
    http://rapidshare.com/files/392342308/Fake.Identity.2010.720p.BluRay.x264-HDEX.part19.rar
    http://rapidshare.com/files/392023708/Fake.Identity.2010.720p.BluRay.x264-HDEX.part20.rar
    http://rapidshare.com/files/392349922/Fake.Identity.2010.720p.BluRay.x264-HDEX.part21.rar
    http://rapidshare.com/files/392022989/Fake.Identity.2010.720p.BluRay.x264-HDEX.part22.rar
    http://rapidshare.com/files/392010892/Fake.Identity.2010.720p.BluRay.x264-HDEX.part23.rar



    bankruptcy lawyer escondido
    samenwerken in een team
    _________________
    bankruptcy lawyer escondido
    samenwerken in een team

      Hôm nay: Sat Dec 03, 2016 10:36 pm